Игры для приставок
Опрос
Нужен ли сайту раздел "Все для андроид?
ИНТЕРЕСНОЕ В СЕТИ
--------

28 дней спустя / 28 Days Later (2002) BDRip-AVC скачать торрент

28 дней спустя / 28 Days Later (2002) BDRip-AVC скачать торрент бесплатно
Размер: 2.05 GB

Название: 28 дней спустя
Оригинальное название: 28 Days Later...
Год выхода: 2002
Жанр: ужасы, фантастика, триллер
Режиссер: Дэнни Бойл

В ролях: Киллиан Мёрфи, Наоми Харрис, Меган Бёрнс, Брендан Глисон, Кристофер Экклстон, Ной Хантли, Люк Мэбли, Стюарт МакКуорри, Риччи Харнетт, Джуниор Ланиян

О фильме: Группа «зеленых» экстремистов вторгается в центр исследования приматов и выпускает из секретной научной лаборатории обезьяну, зараженную вирусом неудержимой агрессии. Смертельный вирус, передающийся через кровь за считанные секунды, приводит к мгновенному заражению и, соприкасаясь с любым живым существом, превращает его в кровожадного монстра.

Через 4 недели вся Англия охвачена страшной эпидемией: многие люди эвакуируются, другие ищут безопасные места, в надежде спастись. Те, кому посчастливилось не заразиться, вместе с группой военных прячутся в заброшенном доме. Вместе им предстоит разобраться в ситуации и попытаться ее исправить…


Страна: Великобритания
Продолжительность: 01:57:34
Перевод: Дублированный

Файл
Кодек: x.264
Качество: BDRip-AVC (источник: bluebird / Blu-ray Disc [EUR] / 1080p)
Видео: 1024x560 (1,85:1), 23,976 fps, 2115 kbps, 0.154 bit/pixel
Звук: 48 kHz, AC3 Dolby Digital, 6 ch, ~384.00 kbps
Субтитры: Русские, Английские (отключаемые)


[spoiler=MediaInfo]Общее
Уникальный идентификатор : 231005236897453656827953677173012054225 (0xADC9FD84A2B0FC73BE483E3A0ED440D1)
Полное имя : D:28 Days Later...2002.BDRip-AVC.mkv
Формат : Matroska
Версия формата : Version 4 / Version 2
Размер файла : 2,05 Гбайт
Продолжительность : 1 ч. 57 м.
Общий поток : 2501 Кбит/сек
Название фильма : 28 дней спустя / 28 Days Later... (2002) BDRip-AVC rip by Rulya74
Дата кодирования : UTC 2014-02-09 06:09:10
Программа кодирования : mkvmerge v6.6.0 ('The Edge Of The In Between') built on Dec 1 2013 17:55:00
Библиотека кодирования : libebml v1.3.0 + libmatroska v1.4.1

Видео
Идентификатор : 1
Формат : AVC
Формат/Информация : Advanced Video Codec
Профиль формата : High@L4.1
Параметр CABAC формата : Да
Параметр ReFrames формата : 11 кадров
Идентификатор кодека : V_MPEG4/ISO/AVC
Продолжительность : 1 ч. 57 м.
Битрейт : 2115 Кбит/сек
Ширина : 1024 пикселя
Высота : 560 пикселей
Соотношение сторон : 1,85:1
Режим частоты кадров : Постоянный
Частота кадров : 23,976 кадра/сек
Цветовое пространство : YUV
Субдискретизация насыщенности : 4:2:0
Битовая глубина : 8 бит
Тип развёртки : Прогрессивная
Бит/(Пиксели*Кадры) : 0.154
Размер потока : 1,70 Гбайт (83%)
Библиотека кодирования : x264 core 130 r2273 b3065e6

Аудио
Идентификатор : 2
Формат : AC-3
Формат/Информация : Audio Coding 3
Расширение режима : CM (complete main)
Параметр Endianness формата : Big
Идентификатор кодека : A_AC3
Продолжительность : 1 ч. 57 м.
Вид битрейта : Постоянный
Битрейт : 384 Кбит/сек
Каналы : 6 каналов
Расположение каналов : Front: L C R, Side: L R, LFE
Частота : 48,0 КГц
Битовая глубина : 16 бит
Метод сжатия : С потерями
Размер потока : 323 Мбайт (15%)
Заголовок : Дублированный
Язык : Russian
Default : Да
Forced : Нет

28 дней спустя / 28 Days Later (2002) BDRip-AVC


[spoiler]
28 дней спустя / 28 Days Later (2002) BDRip-AVC

28 дней спустя / 28 Days Later (2002) BDRip-AVC


[/spoiler]




Комментировать новость через профль:

Либо Вам нужнозарегистрироваться на сайте .